JodicForum.org
 
 

Go Back   JodicForum.org > GENERAL PORN VIDEOS > General Megathreads



Reply
 
Thread Tools Search this Thread Display Modes
Old 07-23-2019, 01:19 AM   #11
Jodic
 
Join Date: May 2019
Posts: 12,030
Thanks: 0
Thanked 1 Time in 1 Post
blackoysterrrs is on a distinguished road
Default #1495
#1495

General info:
Duration: 12 min 9 s
Genre: Solo, Close ups, Indoor
Year: 2019
File size: 1.28 GiB
Resolution: 1080 x 3 840
Format: MP4




Models: Daisy Stone

Download:
Download file
blackoysterrrs is online now   Reply With Quote
Old 07-24-2019, 02:01 PM   #12
Jodic
 
Join Date: May 2019
Posts: 12,030
Thanks: 0
Thanked 1 Time in 1 Post
blackoysterrrs is on a distinguished road
Default #1443
#1443

General info:
Duration: 13 min 13 s
Genre: Solo, Close ups, Outdoor
Year: 2018
File size: 1.40 GiB
Resolution: 1080 x 3 840
Format: MP4




Models: Cecilia Scott

Download:
Download file
blackoysterrrs is online now   Reply With Quote
Old 07-25-2019, 08:24 AM   #13
Jodic
 
Join Date: May 2019
Posts: 12,030
Thanks: 0
Thanked 1 Time in 1 Post
blackoysterrrs is on a distinguished road
Default Discobitch
Discobitch

General info:
Duration: 7 min 28 s
Genre: Blowjob, Cowgirl, Solo, Virtual Reality, VR
Year: 2018
File size: 1.58 GiB
Resolution: 2048 x 4 096
Format: MP4




Description: New to Stripz VR we welcome the absolute gorgeous cracker that is "Jizzles" - She's 25 years of age, full of fun, has a very petite body (a perfect ass!) and you can just tell that she loves showing off in front of the camera. You're in for a treat girls & guys. She's fuckin' smokin' in Virtual Reality!!
Models: Jizzles

Download:
Download file
blackoysterrrs is online now   Reply With Quote
Old 07-25-2019, 07:59 PM   #14
Jodic
 
Join Date: May 2019
Posts: 12,030
Thanks: 0
Thanked 1 Time in 1 Post
blackoysterrrs is on a distinguished road
Default #1518
#1518

General info:
Duration: 14 min 30 s
Genre: Solo, Close ups, Indoor
Year: 2019
File size: 1.53 GiB
Resolution: 1080 x 3 840
Format: MP4




Models: Vina Sky

Download:
Download file
blackoysterrrs is online now   Reply With Quote
Old 07-26-2019, 02:45 AM   #15
Jodic
 
Join Date: May 2019
Posts: 12,030
Thanks: 0
Thanked 1 Time in 1 Post
blackoysterrrs is on a distinguished road
Default Eveline Dellai & Silvia Dellai
Eveline Dellai & Silvia Dellai

General info:
Duration: 18 min 35 s
Genre: Threesome FFM, Hardcore, Blowjob, POV, All sex, Virtual Reality, VR
Year: 2016
File size: 1.97 GiB
Resolution: 1440 x 2 880
Format: MP4




Models: Eveline Dellai & Silvia Dellai

Download:
Download file
blackoysterrrs is online now   Reply With Quote
Old 07-27-2019, 03:28 PM   #16
Jodic
 
Join Date: May 2019
Posts: 12,030
Thanks: 0
Thanked 1 Time in 1 Post
blackoysterrrs is on a distinguished road
Default Red Bird
Red Bird

General info:
Duration: 11 min 20 s
Genre: Solo, Masturbation, Toy, Big tits, Redhead, First time in VR, Virtual Reality, VR
Year: 2018
File size: 1.61 GiB
Resolution: 1440 x 2 880
Format: MP4




Models: Red Bird

Download:
Download file
blackoysterrrs is online now   Reply With Quote
Old 07-28-2019, 12:39 AM   #17
Jodic
 
Join Date: May 2019
Posts: 12,030
Thanks: 0
Thanked 1 Time in 1 Post
blackoysterrrs is on a distinguished road
Default 180 Degrees of Double D
180 Degrees of Double D

General info:
Duration: 18 min 47 s
Genre: all sex, 3d
Year: 2015
File size: 2.00 GiB
Resolution: 1080 x 1 920
Format: MP4




Description: Take the seat of one lucky fan and get a 180 3D experience of Aletta Ocean like you've never seen her before. Who wouldn't want to be in the hands of this sexy, luscious babe.
Models: Aletta Ocean

Download:
Download file
blackoysterrrs is online now   Reply With Quote
Old 07-28-2019, 09:50 AM   #18
Jodic
 
Join Date: May 2019
Posts: 12,030
Thanks: 0
Thanked 1 Time in 1 Post
blackoysterrrs is on a distinguished road
Default #1480
#1480

General info:
Duration: 13 min 5 s
Genre: Solo, Close ups, Outdoor
Year: 2018
File size: 1.38 GiB
Resolution: 1080 x 3 840
Format: MP4




Models: Lulu Love

Download:
Download file
blackoysterrrs is online now   Reply With Quote
Old 07-29-2019, 01:23 PM   #19
Jodic
 
Join Date: May 2019
Posts: 12,030
Thanks: 0
Thanked 1 Time in 1 Post
blackoysterrrs is on a distinguished road
Default #1434
#1434

General info:
Duration: 10 min 51 s
Genre: Solo, Close ups, Indoor
Year: 2018
File size: 1.15 GiB
Resolution: 1080 x 3 840
Format: MP4




Models: Shona River

Download:
Download file
blackoysterrrs is online now   Reply With Quote
Old 07-30-2019, 07:44 AM   #20
Jodic
 
Join Date: May 2019
Posts: 12,030
Thanks: 0
Thanked 1 Time in 1 Post
blackoysterrrs is on a distinguished road
Default MARRY QUEEN & MAD MAX Anal on fire
MARRY QUEEN & MAD MAX Anal on fire

General info:
Duration: 30 min 6 s
Genre: All sex, Oral, Anal
Year: 2011
File size: 1.37 GiB
Resolution: 1080 x 1 920
Format: Windows Media




Description: Description of the codec : Windows Media Video 9 - Professional
Duration : 30mn 6s
Bit rate mode : Variable
Bit rate : 6 291 Kbps
Width : 1 920 pixels
Height : 1 080 pixels
Display aspect ratio : 16:9
Frame rate : 29.970 fps
Bit depth : 8 bits
Scan type : Progressive
Compression mode : Lossy
Bits/(Pixel*Frame) : 0.101
Stream size : 1.32 GiB (97%)
Language : German Audio
ID : 1
Format : WMA
Format version : Version 2
Codec ID : 161
Codec ID/Info : Windows Media Audio
Description of the codec : Windows Media Audio 9.2 - 192 kbps, 48 kHz, stereo (A/V) 1-pass CBR
Duration : 30mn 6s
Bit rate mode : Constant
Bit rate : 192 Kbps
Channel(s) : 2 channels
Sampling rate : 48.0 KHz
Bit depth : 16 bits
Stream size : 41.3 MiB (3%)
Language : German
Models: Marry Queen, Max

Download:
Download file
blackoysterrrs is online now   Reply With Quote
Reply

Bookmarks

Tags
dive, full!, reality!, virtual, world

Thread Tools Search this Thread
Search this Thread:

Advanced Search
Display Modes

Similar Threads
Thread Thread Starter Forum Replies Last Post
3D & Virtual Reality Videos {NEW} carlsberg33 General Megathreads 2374 Today 09:35 AM
Hot Collection - 3D & Virtual Reality carra23 General Megathreads 1506 Today 02:22 AM
Full Immersion and Amazing Impression with Virtual Reality Gorod126 General Megathreads 2217 09-20-2020 08:25 PM
Feel it Real Virtual Reality Porn Collection!! (HD, Full HD, Ultra HD) pornguru General Megathreads 814 04-21-2018 09:14 PM




All times are GMT. The time now is 12:24 PM.


    Attention! This site contains adult material, if you are under 18 years old, you must immediately leave this website.
Materials on the forum provided for educational purposes, if you want to buy material, contact the copyright holder
DMCA. §2257.